Реклама

Скачать Кодекс Готти (2018) BDRip 720p | iTunes через торрент

Кодекс Готти (2018) BDRip 720p | iTunes
Сидов Пиров Скачали
9 1 551
Размер Файлы
5.03 GB
Оценка5.0 из 10
Голосов1
5.5 1809 4.9 5672
Наименование: Кодекс Готти
Оригинальное наименование: Gotti
Произведено: Канада, США
Категория: драма, криминал, биография
Режиссер постановщик: Кевин Коннолли
В главных ролях: Джон Траволта, Келли Престон, Стейси Кич, Спенсер Лофранко, Прюитт Тэйлор Винс, Эшли Кусато, Лидия Халл, Уильям ДеМео, Крис Малки, Лео Росси
Фильмы (720,1080,Blu-Ray)
Краткое описание: Джон Готти начинал свою криминальную карьеру, выполняя самые простые поручения. Позже он по праву стал ключевым человеком в криминальном мире. Его семья является самой влиятельной и богатой в Нью-Йорке, финансовое благополучие и власть ставится выше моральных аспектов. Однажды дело Готти должно быть передано наследнику, однако неожиданно отец сталкивается с отказом сына иметь причастность к миру криминала. Но как поступит Готти-младший, когда над его семьёй нависнет угроза?
  • Видео данные: MPEG-4 AVC, 5555 Kбит/с, 1280x536
    Аудио данные: Русский (AC3, 6 ch, 384 Кбит/с), английский (AC3, 6 ch, 640 Кбит/с)
    Перевод: Дублированный [iTunes]
    Субтитры: Английские
    Продолжительность: 01:49:32
  • Кодекс Готти (2018) BDRip 720p | iTunes Кодекс Готти (2018) BDRip 720p | iTunes Кодекс Готти (2018) BDRip 720p | iTunes
  • Общее
    Уникальный идентификатор : 183696916366013859878394539181732231268 (0x8A32BD3BB15DA39F929FA35799F77864)
    Полное имя : D:\Заготовки\Gotti.2018.D.BDRip.720p.mkv
    Формат : Matroska
    Версия формата : Version 2
    Размер файла : 5,03 Гбайт
    Продолжительность : 1 ч. 49 м.
    Общий поток : 6579 Кбит/сек
    Дата кодирования : UTC 2018-09-04 13:32:22
    Программа кодирования : mkvmerge v7.8.0 ('River Man') 32bit built on Apr 3 2015 12:11:22
    Библиотека кодирования : libebml v1.3.1 + libmatroska v1.4.2

    Видео
    Идентификатор : 1
    Формат : AVC
    Формат/Информация : Advanced Video Codec
    Профиль формата : High@L4.1
    Настройки формата : CABAC / 12 Ref Frames
    Параметр CABAC формата : Да
    Параметр RefFrames формата : 12 кадров
    Идентификатор кодека : V_MPEG4/ISO/AVC
    Продолжительность : 1 ч. 49 м.
    Битрейт : 5555 Кбит/сек
    Ширина : 1280 пикселей
    Высота : 536 пикселей
    Соотношение сторон : 2,40:1
    Режим частоты кадров : Постоянный
    Частота кадров : 23,976 (24000/1001) кадра/сек
    Цветовое пространство : YUV
    Субдискретизация насыщенности : 4:2:0
    Битовая глубина : 8 бит
    Тип развёртки : Прогрессивная
    Бит/(Пиксели*Кадры) : 0.338
    Размер потока : 4,15 Гбайт (82%)
    Библиотека кодирования : x264 core 152 r2851kMod ba24899
    Настройки программы : cabac=1 / ref=12 / deblock=1:-3:-3 / analyse=0x3:0x133 / me=umh / subme=11 / psy=1 / fade_compensate=0.00 / psy_rd=1.00:0.00 / mixed_ref=1 / me_range=32 / chroma_me=0 / trellis=2 / 8x8dct=1 / cqm=0 / deadzone=21,11 / fast_pskip=0 / chroma_qp_offset=-2 / threads=12 / lookahead_threads=3 / sliced_threads=0 / nr=0 / decimate=0 / interlaced=0 / bluray_compat=0 / constrained_intra=0 / bframes=12 / b_pyramid=2 / b_adapt=2 / b_bias=0 / direct=3 / weightb=1 / open_gop=1 / weightp=2 / keyint=240 / keyint_min=23 / scenecut=40 / intra_refresh=0 / rc_lookahead=40 / rc=2pass / mbtree=0 / bitrate=5555 / ratetol=1.0 / qcomp=0.60 / qpmin=0 / qpmax=69 / qpstep=4 / cplxblur=20.0 / qblur=0.5 / vbv_maxrate=50000 / vbv_bufsize=62500 / nal_hrd=none / filler=0 / ip_ratio=1.40 / pb_ratio=1.30 / aq=3:0.90
    Язык : English
    Default : Да
    Forced : Нет

    Аудио #1
    Идентификатор : 2
    Формат : AC-3
    Формат/Информация : Audio Coding 3
    Идентификатор кодека : A_AC3
    Продолжительность : 1 ч. 49 м.
    Вид битрейта : Постоянный
    Битрейт : 384 Кбит/сек
    Каналы : 6 каналов
    Расположение каналов : Front: L C R, Side: L R, LFE
    Частота : 48,0 КГц
    Частота кадров : 31,250 кадров/сек (1536 SPF)
    Битовая глубина : 16 бит
    Метод сжатия : С потерями
    Размер потока : 301 Мбайт (6%)
    Заголовок : iTunes
    Язык : Russian
    ServiceKind/String : Complete Main
    Default : Да
    Forced : Нет

    Аудио #2
    Идентификатор : 3
    Формат : AC-3
    Формат/Информация : Audio Coding 3
    Идентификатор кодека : A_AC3
    Продолжительность : 1 ч. 49 м.
    Вид битрейта : Постоянный
    Битрейт : 640 Кбит/сек
    Каналы : 6 каналов
    Расположение каналов : Front: L C R, Side: L R, LFE
    Частота : 48,0 КГц
    Частота кадров : 31,250 кадров/сек (1536 SPF)
    Битовая глубина : 16 бит
    Метод сжатия : С потерями
    Размер потока : 502 Мбайт (10%)
    Язык : English
    ServiceKind/String : Complete Main
    Default : Нет
    Forced : Нет

    Текст
    Идентификатор : 4
    Формат : UTF-8
    Идентификатор кодека : S_TEXT/UTF8
    Идентификатор кодека/Информация : UTF-8 Plain Text
    Язык : English
    Default : Нет
    Forced : Нет

    Меню
    00:00:00.000 : en:Chapter 01
    00:10:15.094 : en:Chapter 02
    00:22:20.944 : en:Chapter 03
    00:30:59.087 : en:Chapter 04
    00:41:33.137 : en:Chapter 05
    00:53:08.707 : en:Chapter 06
    01:02:35.231 : en:Chapter 07
    01:13:17.498 : en:Chapter 08
    01:22:57.953 : en:Chapter 09
    01:34:18.800 : en:Chapter 10
    01:41:48.290 : en:Chapter 11

karta 4-09-2018, 16:55
Информация
Посетители, находящиеся в группе Гости, не могут оставлять комментарии к данной публикации.
© 2012-2018, admin@kinopad.club