Реклама

Скачать Последний контракт Халли (2017) BDRip 1080p | iTunes через торрент

Последний контракт Халли (2017) BDRip 1080p | iTunes
Сидов Пиров Скачали
3 0 360
Размер Файлы
7.89 GB
Оценка5.0 из 10
Голосов1
3.4 222
Наименование: Последний контракт Халли
Оригинальное наименование: Khali the Killer
Произведено: США
Категория: драма, криминал
Режиссер постановщик: Джон Мэтьюз
В главных ролях: Ричард Кебрал, Райан Дорси, Корина Калдерон, Дина Фриман, Кари Дж. Крамер, Джои Абрил, Клэйтон Карденас, Уилсон Рамирес, Челси, Вивьенн Пауэллa
Фильмы (720,1080,Blu-Ray)
Краткое описание: Перед тем как отойти от дел, наемный убийца решается на одну последнюю работу ради денег для своей бабушки, которой необходим особый уход. Все идет не по плану, когда он привязывается к своим будущим жертвам. Теперь герою предстоит принять, возможно, самое сложное решение в своей жизни.
  • Видео данные: MPEG-4 AVC, 10.7 Mb/s, 1920x808
    Аудио данные: Russian: AC3, 384 kb/s (6 ch) / English: DTS, 1509 kb/s (6 ch)
    Перевод: Профессиональный многоголосый [iTunes]
    Продолжительность: 01:29:58
  • Последний контракт Халли (2017) BDRip 1080p | iTunes Последний контракт Халли (2017) BDRip 1080p | iTunes Последний контракт Халли (2017) BDRip 1080p | iTunes
  • Общее
    Уникальный идентификатор : 250316734650036626870582068249749170871 (0xBC513FDE353AFC0D932E080DB26D2AB7)
    Полное имя : D:\Заготовки\Khali.the.Killer.2017.P.BDRip.1O8Op.mkv
    Формат : Matroska
    Версия формата : Version 2
    Размер файла : 7,89 Гбайт
    Продолжительность : 1 ч. 29 м.
    Общий поток : 12,6 Мбит/сек
    Дата кодирования : UTC 2018-08-03 16:38:57
    Программа кодирования : mkvmerge v8.3.0 ('Over the Horizon') 64bit
    Библиотека кодирования : libebml v1.3.1 + libmatroska v1.4.2

    Видео
    Идентификатор : 1
    Формат : AVC
    Формат/Информация : Advanced Video Codec
    Профиль формата : High@L4.1
    Настройки формата : CABAC / 5 Ref Frames
    Параметр CABAC формата : Да
    Параметр RefFrames формата : 5 кадров
    Идентификатор кодека : V_MPEG4/ISO/AVC
    Продолжительность : 1 ч. 29 м.
    Битрейт : 10,7 Мбит/сек
    Ширина : 1920 пикселей
    Высота : 808 пикселей
    Соотношение сторон : 2,40:1
    Режим частоты кадров : Постоянный
    Частота кадров : 23,976 (24000/1001) кадра/сек
    Цветовое пространство : YUV
    Субдискретизация насыщенности : 4:2:0
    Битовая глубина : 8 бит
    Тип развёртки : Прогрессивная
    Бит/(Пиксели*Кадры) : 0.287
    Размер потока : 6,70 Гбайт (85%)
    Библиотека кодирования : x264 core 152 r2851 ba24899
    Настройки программы : cabac=1 / ref=5 / deblock=1:-2:-2 / analyse=0x3:0x113 / me=umh / subme=8 / psy=1 / psy_rd=1.00:0.00 / mixed_ref=1 / me_range=16 / chroma_me=1 / trellis=2 / 8x8dct=1 / cqm=0 / deadzone=21,11 / fast_pskip=1 / chroma_qp_offset=-2 / threads=12 / lookahead_threads=2 / sliced_threads=0 / nr=0 / decimate=1 / interlaced=0 / bluray_compat=0 / constrained_intra=0 / bframes=3 / b_pyramid=2 / b_adapt=2 / b_bias=0 / direct=3 / weightb=1 / open_gop=0 / weightp=2 / keyint=240 / keyint_min=24 / scenecut=40 / intra_refresh=0 / rc_lookahead=50 / rc=2pass / mbtree=1 / bitrate=10664 / ratetol=1.0 / qcomp=0.60 / qpmin=0 / qpmax=69 / qpstep=4 / cplxblur=20.0 / qblur=0.5 / ip_ratio=1.40 / aq=1:1.00
    Язык : English
    Default : Да
    Forced : Нет

    Аудио #1
    Идентификатор : 2
    Формат : AC-3
    Формат/Информация : Audio Coding 3
    Идентификатор кодека : A_AC3
    Продолжительность : 1 ч. 29 м.
    Вид битрейта : Постоянный
    Битрейт : 384 Кбит/сек
    Каналы : 6 каналов
    Расположение каналов : Front: L C R, Side: L R, LFE
    Частота : 48,0 КГц
    Частота кадров : 31,250 кадров/сек (1536 SPF)
    Битовая глубина : 16 бит
    Метод сжатия : С потерями
    Размер потока : 247 Мбайт (3%)
    Язык : Russian
    ServiceKind/String : Complete Main
    Default : Нет
    Forced : Нет

    Аудио #2
    Идентификатор : 3
    Формат : DTS
    Формат/Информация : Digital Theater Systems
    Идентификатор кодека : A_DTS
    Продолжительность : 1 ч. 29 м.
    Вид битрейта : Постоянный
    Битрейт : 1509 Кбит/сек
    Каналы : 6 каналов
    Расположение каналов : Front: L C R, Side: L R, LFE
    Частота : 48,0 КГц
    Частота кадров : 93,750 кадра/сек (512 SPF)
    Битовая глубина : 24 бит
    Метод сжатия : С потерями
    Размер потока : 971 Мбайт (12%)
    Язык : English
    Default : Нет
    Forced : Нет

    Текст
    Идентификатор : 4
    Формат : UTF-8
    Идентификатор кодека : S_TEXT/UTF8
    Идентификатор кодека/Информация : UTF-8 Plain Text
    Продолжительность : 1 ч. 13 м.
    Битрейт : 1 бит/сек
    ElementCount : 21
    Размер потока : 599 байт (0%)
    Заголовок : forced
    Язык : English
    Default : Нет
    Forced : Нет

    Меню
    00:00:00.000 : en:00:00:00.000
    00:08:18.039 : en:00:08:18.039
    00:18:45.916 : en:00:18:45.916
    00:24:32.137 : en:00:24:32.137
    00:37:55.023 : en:00:37:55.023
    00:45:13.252 : en:00:45:13.252
    00:54:11.999 : en:00:54:11.999
    01:12:19.585 : en:01:12:19.585
    01:17:04.370 : en:01:17:04.370
    01:26:14.503 : en:01:26:14.503
CinemaRelizer4-08-2018, 06:03
Информация
Посетители, находящиеся в группе Гости, не могут оставлять комментарии к данной публикации.
© 2012-2018, admin@kinopad.club