Реклама

Скачать Гонка века (2018) BDRip 1080p | iTunes через торрент

Гонка века (2018) BDRip 1080p | iTunes
Сидов Пиров Скачали
9 0 1662
Размер Файлы
13.75 GB
Оценка5.0 из 10
Голосов1
6.1 3357 6 3481
Наименование: Гонка века
Оригинальное наименование: The Mercy
Произведено: Великобритания
Категория: драма, биография
Режиссер постановщик: Джеймс Марш
В главных ролях: Рэйчел Вайс, Колин Фёрт, Дэвид Тьюлис, Марк Гейтисс, Эндрю Бакан, Джонатан Бэйли, Кен Стотт, Анна Маделей, Женевьев Гонт, Тим Дауни
Фильмы (720,1080,Blu-Ray)
Краткое описание: В 1968 г. английский яхтсмен-любитель Дональд Кроухерст, заложив все свое состояние, решил осуществить мечту всей жизни, совершив в одиночку рискованное кругосветное путешествие в рамках гонки за приз газеты Sunday Times. Вскоре после отплытия он понял, что это соревнование ему не выиграть, и задумал совершенно безумную авантюру.
  • Видео данные: MPEG-4 AVC, 18.3 Мбит/с, 1920x804
    Аудио данные: Русский (AC3, 6 ch, 384 Кбит/с), английский (AC3, 6 ch, 640 Кбит/с)
    Перевод: Дублированный [iTunes]
    Субтитры: английские
    Продолжительность: 01:41:43
  • Гонка века (2018) BDRip 1080p | iTunes Гонка века (2018) BDRip 1080p | iTunes Гонка века (2018) BDRip 1080p | iTunes
  • Общее
    Уникальный идентификатор : 226462202712889280855858290593401694943 (0xAA5F08A3AFDBAE58950446CAB4C06ADF)
    Полное имя : D:\Заготовки\The.Mercy.2018.D.BDRip.1080.mkv
    Формат : Matroska
    Версия формата : Version 2
    Размер файла : 13,7 Гбайт
    Продолжительность : 1 ч. 41 м.
    Общий поток : 19,3 Мбит/сек
    Дата кодирования : UTC 2018-08-04 18:05:26
    Программа кодирования : mkvmerge v7.8.0 ('River Man') 32bit built on Apr 3 2015 12:11:22
    Библиотека кодирования : libebml v1.3.1 + libmatroska v1.4.2

    Видео
    Идентификатор : 1
    Формат : AVC
    Формат/Информация : Advanced Video Codec
    Профиль формата : High@L4.1
    Настройки формата : CABAC / 5 Ref Frames
    Параметр CABAC формата : Да
    Параметр RefFrames формата : 5 кадров
    Идентификатор кодека : V_MPEG4/ISO/AVC
    Продолжительность : 1 ч. 41 м.
    Битрейт : 17,9 Мбит/сек
    Ширина : 1920 пикселей
    Высота : 804 пикселя
    Соотношение сторон : 2,40:1
    Режим частоты кадров : Постоянный
    Частота кадров : 24,000 кадра/сек
    Цветовое пространство : YUV
    Субдискретизация насыщенности : 4:2:0
    Битовая глубина : 8 бит
    Тип развёртки : Прогрессивная
    Бит/(Пиксели*Кадры) : 0.484
    Размер потока : 12,7 Гбайт (93%)
    Библиотека кодирования : x264 core 152 r2851+58 429492e t_mod_Custom [8-bit@all X86_64]
    Настройки программы : cabac=1 / ref=5 / deblock=1:-3:-3 / analyse=0x3:0x133 / me=umh / subme=10 / psy=1 / fade_compensate=0.00 / psy_rd=1.05:0.00 / mixed_ref=1 / me_range=32 / chroma_me=1 / trellis=2 / 8x8dct=1 / cqm=0 / deadzone=21,11 / fast_pskip=0 / chroma_qp_offset=-2 / threads=24 / lookahead_threads=6 / sliced_threads=0 / nr=0 / decimate=0 / interlaced=0 / bluray_compat=0 / constrained_intra=0 / fgo=0 / bframes=13 / b_pyramid=2 / b_adapt=2 / b_bias=0 / direct=3 / weightb=1 / open_gop=0 / weightp=2 / keyint=250 / keyint_min=24 / scenecut=40 / intra_refresh=0 / rc_lookahead=60 / rc=crf / mbtree=0 / crf=17.0000 / qcomp=0.60 / qpmin=0:0:0 / qpmax=69:69:69 / qpstep=4 / vbv_maxrate=62500 / vbv_bufsize=78125 / crf_max=0.0 / nal_hrd=none / filler=0 / ip_ratio=1.40 / pb_ratio=1.20 / aq=3:0.75 / aq-sensitivity=10.00 / aq-factor=1.00:1.00:1.00 / aq2=0 / aq3=0 / zones=51062,51233,crf=16.5/52062,52221,crf=16.5/52355,52654,crf=16.5/58928,59042,crf=16.0/59222,59313,crf=16.0/59314,59454,crf=16.8/59455,59632,crf=16.0/59633,59769,crf=16.8/68704,68887,crf=16.8/72837,73067,crf=16.8/73322,73592,crf=16.8/73593,73945,crf=16.8/79978,80077,crf=16.8/86231,86328,crf=16.3/89492,89827,crf=16.8/89828,91136,crf=16.8/91656,92216,crf=16.8/93929,97327,crf=16.8/94328,94690,crf=16.8/104400,104552,crf=16.8/105161,105371,crf=16.5/105372,105469,crf=16.8
    Язык : English
    Default : Да
    Forced : Нет
    Цветовой диапазон : Limited
    Коэффициенты матрицы : BT.709

    Аудио #1
    Идентификатор : 2
    Формат : AC-3
    Формат/Информация : Audio Coding 3
    Идентификатор кодека : A_AC3
    Продолжительность : 1 ч. 41 м.
    Вид битрейта : Постоянный
    Битрейт : 384 Кбит/сек
    Каналы : 6 каналов
    Расположение каналов : Front: L C R, Side: L R, LFE
    Частота : 48,0 КГц
    Частота кадров : 31,250 кадров/сек (1536 SPF)
    Битовая глубина : 16 бит
    Метод сжатия : С потерями
    Размер потока : 279 Мбайт (2%)
    Язык : Russian
    ServiceKind/String : Complete Main
    Default : Да
    Forced : Нет

    Аудио #2
    Идентификатор : 3
    Формат : AC-3
    Формат/Информация : Audio Coding 3
    Идентификатор кодека : A_AC3
    Продолжительность : 1 ч. 41 м.
    Вид битрейта : Постоянный
    Битрейт : 640 Кбит/сек
    Каналы : 6 каналов
    Расположение каналов : Front: L C R, Side: L R, LFE
    Частота : 48,0 КГц
    Частота кадров : 31,250 кадров/сек (1536 SPF)
    Битовая глубина : 16 бит
    Метод сжатия : С потерями
    Размер потока : 466 Мбайт (3%)
    Язык : English
    ServiceKind/String : Complete Main
    Default : Нет
    Forced : Нет

    Текст #1
    Идентификатор : 4
    Формат : UTF-8
    Идентификатор кодека : S_TEXT/UTF8
    Идентификатор кодека/Информация : UTF-8 Plain Text
    Язык : English
    Default : Нет
    Forced : Нет

    Текст #2
    Идентификатор : 5
    Формат : UTF-8
    Идентификатор кодека : S_TEXT/UTF8
    Идентификатор кодека/Информация : UTF-8 Plain Text
    Заголовок : SDH
    Язык : Dutch
    Default : Нет
    Forced : Нет

    Меню
    00:00:00.000 : en:Chapter 1
    00:07:56.750 : en:Chapter 2
    00:16:37.958 : en:Chapter 3
    00:24:15.958 : en:Chapter 4
    00:32:03.833 : en:Chapter 5
    00:41:44.500 : en:Chapter 6
    00:47:50.333 : en:Chapter 7
    00:57:03.333 : en:Chapter 8
    01:05:05.000 : en:Chapter 9
    01:14:32.500 : en:Chapter 10
    01:22:28.750 : en:Chapter 11
    01:31:10.375 : en:Chapter 12
CinemaRelizer4-08-2018, 21:15
Информация
Посетители, находящиеся в группе Гости, не могут оставлять комментарии к данной публикации.
© 2012-2018, admin@kinopad.club